Au revoir là-haut (2017) | saison 2, épisode 3 | Bollywood Villa Full Movie








Info

user posted image
THE FLASH
STAGIONE 3
WEB-DLMUX 1080p

.: Dati Serie :.

Nazione: Stati Uniti d’America
Anno: 2014 – in produzione
Genere: supereroi, azione, drammatico, fantascienza
Stagione: 3
Episodi: 23
Durata: 45 min circa
Lingua: ITA – ENG
Cast:
• Grant Gustin: Barry Allen/Flash
• Candice Patton: Iris West
• Danielle Panabaker: Caitlin Snow/Killer Frost
• Carlos Valdes: Francisco “Cisco” Ramon/Vibe
• Thomas Cavanagh: Harrison Wells/Eobard Thawne/Anti-Flash
• Jesse L. Martin: Joe West
• Keiynan Lonsdale: Wally West

Barry Allen è uno scienziato forense un po’ impacciato del Dipartimento di polizia di Central City. All’età di 11 anni assiste all’omicidio della madre, un omicidio al limite dell’impossibile: un lampo giallo e uno rosso portano via la vita della donna. Barry cresce alla ricerca disperata di questo “impossibile” assassino della madre, cercando di scagionare il padre, finito in carcere per l’omicidio stesso: nessuno crede in lui, né nell’”impossibile”.
Ma la notte in cui a Central City esplode l’acceleratore di particelle della STAR Labs, un lampo trasforma Barry nell’uomo più veloce sulla faccia della Terra; inizia così la sua avventura nei panni di The Flash.
Al suo fianco tre scienziati, pronti a sostenerlo nella sua missione di vigilante dell’umanità contro il crimine, e la sua famiglia adottiva, composta dal detective Joe West e dalla figlia Iris, miglior amica di Barry e forse anche di più.

Info File

The.Flash.3x01.Flashpoint.ITA.ENG.1080p.WEB-DLMux.H264-LittleLinX.mkv
Format : Matroska
Format version : Version 4 / Version 2
File size : 1.69 GiB
Duration : 40mn 39s
Overall bit rate : 5 963 Kbps
Encoded date : UTC 2017-01-04 00:29:42
Writing application : mkvmerge v7.6.0 ('Garden of Dreams') 64bit built on Feb 8 2015 15:12:28
Writing library : libebml v1.3.1 + libmatroska v1.4.2
DURATION : 00:40:15.894000000
NUMBER_OF_FRAMES : 726
NUMBER_OF_BYTES : 22930
_STATISTICS_WRITING_APP : mkvmerge v7.6.0 ('Garden of Dreams') 64bit built on Feb 8 2015 15:12:28
_STATISTICS_WRITING_DATE_UTC : 2017-01-04 00:29:42
_STATISTICS_TAGS : BPS DURATION NUMBER_OF_FRAMES NUMBER_OF_BYTES

Video
ID : 1
Format : AVC
Format/Info : Advanced Video Codec
Format profile : [email protected]
Format settings, CABAC : Yes
Format settings, ReFrames : 4 frames
Codec ID : V_MPEG4/ISO/AVC
Duration : 40mn 39s
Bit rate : 5 269 Kbps
Width : 1 916 pixels
Height : 1 074 pixels
Display aspect ratio : 16:9
Frame rate : 25.000 fps
Color space : YUV
Chroma subsampling : 4:2:0
Bit depth : 8 bits
Scan type : Progressive
Bits/(Pixel*Frame) : 0.102
Stream size : 1.50 GiB (88%)
Language : English
Default : Yes
Forced : No
Color primaries : BT.709-5, BT.1361, IEC 61966-2-4, SMPTE RP177
Transfer characteristics : BT.709-5, BT.1361
Matrix coefficients : BT.709-5, BT.1361, IEC 61966-2-4 709, SMPTE RP177

Audio #1
ID : 2
Format : AC-3
Format/Info : Audio Coding 3
Mode extension : CM (complete main)
Codec ID : A_AC3
Duration : 40mn 39s
Bit rate mode : Constant
Bit rate : 192 Kbps
Channel(s) : 2 channels
Channel positions : Front: L R
Sampling rate : 48.0 KHz
Bit depth : 16 bits
Compression mode : Lossy
Stream size : 55.8 MiB (3%)
Title : ITA
Language : Italian
Default : Yes
Forced : Yes

Audio #2
ID : 3
Format : AC-3
Format/Info : Audio Coding 3
Mode extension : CM (complete main)
Codec ID : A_AC3
Duration : 40mn 39s
Bit rate mode : Constant
Bit rate : 384 Kbps
Channel(s) : 6 channels
Channel positions : Front: L C R, Side: L R, LFE
Sampling rate : 48.0 KHz
Bit depth : 16 bits
Compression mode : Lossy
Stream size : 112 MiB (6%)
Title : ENG
Language : English
Default : No
Forced : No

Text #1
ID : 4
Format : UTF-8
Codec ID : S_TEXT/UTF8
Codec ID/Info : UTF-8 Plain Text
Language : Italian
Default : No
Forced : No

Text #2
ID : 5
Format : UTF-8
Codec ID : S_TEXT/UTF8
Codec ID/Info : UTF-8 Plain Text
Language : English
Default : No
Forced : No

Trackers

http://tracker.leechers-paradise.org:6969/scrape
http://tracker.tntvillage.scambioetico.org:2710/scrape
http://tracker.internetwarriors.net:1337/scrape
http://tracker.mg64.net:2710/scrape
http://tracker.coppersurfer.tk:6969/scrape
http://IPv6.leechers-paradise.org:6969/scrape
http://tracker.tiny-vps.com:6969/scrape
http://tracker.openbittorrent.com/scrape