Facebook | Ali Tataryn | Qui a tue la petite jonbenet (tv)

Coca Cola Kid – Dusan Makavejev 1985, [XviD]  (765.78 Mb)

Likes(0)Dislikes(0)
seeders: 1
leechers: 3








Info

The Coca-Cola Kid


6.0
IMDB: 6.0/10 2,462 votes

Durata: 98 min

Released:

Anno: 14 Jul 1985

Direttore:

Premi: 8 nominations.

Stato: Released

Paese: Australia

Cast:




Ex marine viene mandato in Australia per promuovere il consumo della Coca-Cola. Il suo entusiasmo è ostacolato da un arzillo capitalista locale che produce un suo intruglio artigianale, deciso a non avere concorrenti. 4° film che il serbo D. Makavejev (Montenegro tango) è riuscito a fare in 15 anni di esilio errabondo. Un po’ incoerente ma buffo, rallegrato da musiche gradevoli, abitato da personaggi simpatici. La ciliegina del film è G. Scacchi con il suo pimpante sex-appeal.

Trailer


Upload on Youtube

Info File

Video
ID : 0
Format : MPEG-4 Visual
Format settings, BVOP : Yes
Format settings, QPel : No
Format settings, GMC : No warppoints
Format settings, Matrix : Default (H.263)
Codec ID : XVID
Codec ID/Hint : XviD
Duration : 1h 33mn
Bit rate : 876 Kbps
Width : 576 pixels
Height : 304 pixels
Display aspect ratio : 1.895
Frame rate : 25.000 fps
Resolution : 24 bits
Scan type : Progressive
Bits/(Pixel*Frame) : 0.200
Stream size : 585 MiB (76%)

Audio #1 ITALIANO
ID : 1
Format : MPEG Audio
Format version : Version 1
Format profile : Layer 3
Codec ID : 55
Codec ID/Hint : MP3
Duration : 1h 33mn
Bit rate mode : Constant
Bit rate : 128 Kbps
Channel(s) : 2 channels
Sampling rate : 44.1 KHz
Resolution : 16 bits
Stream size : 85.3 MiB (11%)
Alignment : Aligned on interleaves
Interleave, duration : 40 ms (1.00 video frame)
Interleave, preload duration : 522 ms
Writing library : LAME3.95

Immagini

Coca Cola Kid – Dusan Makavejev 1985, [XviD]
Coca Cola Kid – Dusan Makavejev 1985, [XviD]

Trackers

http://tracker.publicbt.com:80/
http://tracker.istole.it:80/
http://tracker.tntvillage.scambioetico.org:2710/scrape
http://open.demonii.com:1337/scrape
http://tracker.coppersurfer.tk:6969/scrape
http://tracker.openbittorrent.com/scrape

Torrent correlati

Torrent Name Dimm. Creato Seed Leech
comment icon
1.64 Gb 4 mesi fa 0 1
comment icon
3.61 Gb 3 mesi fa 0 0
comment icon
0 bytes 8 mesi fa 0 0
comment icon
1.37 Gb 8 mesi fa 8 0
comment icon
2.2 Gb 4 mesi fa 0 0