Going In Style (2017) streaming HD | Telecharger... | A Fine Romance 1981








Info

Agatha Christie's Miss Marple: At Bertram's Hotel


7.6
IMDB: 7.6/10 1,064 votes

Durata: 110 min

Released:

Anno: 25 Jan 1987

Direttore:

Premi: N/A

Stato: Released

Paese: UK, USA, Australia

Cast:




Miss Marple (Agatha Christie’s Marple) è una serie televisiva britannica basata sui romanzi gialli di Agatha Christie. La serie vede come protagonista Jane Marple, un’anziana signora che viene spesso coinvolta in casi di omicidio che riesce a risolvere grazie alla sua astuzia e alle sue capacità di osservazione.

Trailer


Upload on Youtube

Info File

Video
ID : 0
Format : MPEG-4 Visual
Format settings, BVOP : 1
Format settings, QPel : No
Format settings, GMC : No warppoints
Format settings, Matrix : Default (H.263)
Muxing mode : Packed bitstream
Codec ID : DX50
Codec ID/Hint : DivX 5
Duration : 1h 49mn
Bit rate : 781 Kbps
Width : 592 pixels
Height : 448 pixels
Display aspect ratio : 4:3
Frame rate : 25.000 fps
Color space : YUV
Chroma subsampling : 4:2:0
Bit depth : 8 bits
Scan type : Progressive
Compression mode : Lossy
Bits/(Pixel*Frame) : 0.118
Stream size : 610 MiB (88%)
Writing library : DivX 5.1.1 (Maupiti) (UTC 2003-11-19)

Audio
ID : 1
Format : MPEG Audio
Format version : Version 1
Format profile : Layer 3
Codec ID : 55
Codec ID/Hint : MP3
Duration : 1h 49mn
Bit rate mode : Constant
Bit rate : 96.0 Kbps
Channel(s) : 2 channels
Sampling rate : 44.1 KHz
Compression mode : Lossy
Delay relative to video : 26ms
Stream size : 75.1 MiB (11%)
Alignment : Split accross interleaves
Interleave, duration : 40 ms (1.00 video frame)
Title : Audio Stream

Immagini

Miss Marple – Istantanea Di Un Delitto(1987), [VHSrip – DviX – Ita Mp3]

Trackers

http://tracker.istole.it:80/
http://tracker.publicbt.com:80/
http://tracker.tntvillage.scambioetico.org:2710/scrape
http://open.demonii.com:1337/scrape
http://tracker.coppersurfer.tk:6969/scrape
http://tracker.openbittorrent.com/scrape

Torrent correlati

Torrent Name Dimm. Creato Seed Leech
comment icon
4.96 Gb 3 mesi fa 8 0
comment icon
1.37 Gb 10 mesi fa 4 0
comment icon
1.36 Gb 2 mesi fa 3 2
comment icon
701.14 Mb 10 mesi fa 6 0
comment icon
2.19 Gb 8 mesi fa 6 0