View detail | Video Game High School | The New Atlanta








Info

Anguish


6.7
IMDB: 6.7/10 2,511 votes

Durata: 89 min

Released:

Anno: 08 Jan 1988

Direttore:

Premi: 5 wins & 2 nominations.

Stato: Released

Paese: Spain

Cast:




Due ragazze, Linda e Patty, vanno al cinema Rex a vedere un film intitolato “The Mommy”, nel quale un infermiere, ossessionato da sua madre, si trasforma in un killer che cava gli occhi alle sue vittime.
Patty, durante il film è colta da attacchi di angoscia e l’amica, per tranquillizzarla decide di perlustrare i bagni per “snidare” eventuali assassini.
Così le ragazze assistono all’omicidio della cassiera e della maschera del cinema da parte di un pazzo.
A questo punto film e realtà si mescolano…

Un Bigas Luna metacinematografico, che gioca con gli specchi, utilizzando abilmente il montaggio parallelo e la colonna sonora.
Vertiginoso esempio di contagio tra schermo e sala: una sorta di versione horror e perfida di “La rosa purpurea del Cairo”.

Trailer


Upload on Youtube

Info File

Video
ID: 1
Format: AVC
Format/Info: Advanced Video Codec
Format profile: [email protected]
Format settings, CABAC: Yes
Format settings, ReFrames: 5 frames
Codec ID: V_MPEG4/ISO/AVC
Duration: 1h 24mn
Bit rate: 4 026 Kbps
Width: 1 280 pixels
Height: 536 pixels
Display aspect ratio: 2.40:1
Frame rate mode: Constant
Frame rate: 23.976 fps
Color space: YUV
Chroma subsampling: 4:2:0
Bit depth: 8 bits
Scan type: Progressive
Bits/(Pixel*Frame): 0.245
Stream size: 2.33 GiB (84%)
Title: L'Angoscia (Bigas Luna, 1987)
Writing library: x264 core 140 r2377 1ca7bb9
Encoding settings: cabac=1 / ref=5 / deblock=1:0:0 / analyse=0x3:0x133 / me=umh / subme=7 / psy=1 / psy_rd=1.00:0.00 /
mixed_ref=1 / me_range=16 / chroma_me=1 / trellis=1 / 8x8dct=1 / cqm=0 / deadzone=21,11 / fast_pskip=0 / chroma_qp_offset=-2 /
threads=18 / lookahead_threads=3 / sliced_threads=0 / nr=0 / decimate=1 / interlaced=0 / bluray_compat=0 /
constrained_intra=0 / bframes=3 / b_pyramid=2 / b_adapt=1 / b_bias=0 / direct=1 / weightb=1 / open_gop=0 / weightp=2 /
keyint=240 / keyint_min=23 / scenecut=40 / intra_refresh=0 / rc_lookahead=40 / rc=2pass / mbtree=1 / bitrate=4026 /
ratetol=1.0 / qcomp=0.60 / qpmin=10 / qpmax=69 / qpstep=4 / cplxblur=20.0 / qblur=0.5 / ip_ratio=1.40 / aq=1:1.00
Language: English
Default: Yes
Forced: No

Audio #1
ID: 2
Format: AC-3
Format/Info: Audio Coding 3
Mode extension: CM (complete main)
Format settings, Endianness: Big
Codec ID: A_AC3
Duration: 1h 24mn
Bit rate mode: Constant
Bit rate: 192 Kbps
Channel count: 2 channels
Channel positions: Front: L R
Sampling rate: 48.0 KHz
Bit depth: 16 bits
Compression mode: Lossy
Stream size: 116 MiB (4%)
Title: Italiano AC3 2.0 192Kbps
Language: Italian
Default: Yes
Forced: No

Immagini

L’Angoscia (1987), [BDmux 720p – H264 – Ita Eng Ac3 – Sub Ita eng Spa]

Trackers

http://tracker.istole.it:80/
http://tracker.publicbt.com:80/
http://tracker.tntvillage.scambioetico.org:2710/scrape
http://open.demonii.com:1337/scrape
http://tracker.coppersurfer.tk:6969/scrape
http://tracker.openbittorrent.com/scrape