Baywatch (Čuvari plaže) 2017 | Haiyoru! Nyaru-Ani | Oliver Walker








Info

Agatha Christie's Miss Marple: Sleeping Murder


7.7
IMDB: 7.7/10 1,149 votes

Durata: 102 min

Released:

Anno: 11 Jan 1987

Direttore:

Premi: N/A

Stato: Released

Paese: UK, USA, Australia

Cast:




Ricordo o allucinazione? Realtà o follia? Cosa si nasconde dietro la terribile “visione”che perseguita Gwenda Reedda quando si è trasferita nella sua nuova casa? Se non fosse per il provvidenziale intervento di Miss Marple, forse la povera Gwenda sarebbe impazzita davvero! L’eccezionale vecchietta riesce infatti a convincerla che l’immagine che la ossessiona è un vero ricordo d’infanzia, Insieme, cercheranno di scoprire ciò che la sua mente ha custodito per tanti lunghi anni.

Trailer


Upload on Youtube

Info File

Video
ID : 0
Format : MPEG-4 Visual
Format settings, BVOP : 1
Format settings, QPel : No
Format settings, GMC : No warppoints
Format settings, Matrix : Default (H.263)
Muxing mode : Packed bitstream
Codec ID : DX50
Codec ID/Hint : DivX 5
Duration : 1h 44mn
Bit rate : 836 Kbps
Width : 720 pixels
Height : 576 pixels
Display aspect ratio : 5:4
Frame rate : 25.000 fps
Standard : PAL
Color space : YUV
Chroma subsampling : 4:2:0
Bit depth : 8 bits
Scan type : Progressive
Compression mode : Lossy
Bits/(Pixel*Frame) : 0.081
Stream size : 624 MiB (89%)
Writing library : DivX 5.2.1 (DrDivX 106) (UTC 2004-09-08)

Audio
ID : 1
Format : MPEG Audio
Format version : Version 1
Format profile : Layer 3
Mode : Joint stereo
Mode extension : Intensity Stereo + MS Stereo
Codec ID : 55
Codec ID/Hint : MP3
Duration : 1h 44mn
Bit rate mode : Constant
Bit rate : 96.0 Kbps
Channel(s) : 2 channels
Sampling rate : 44.1 KHz
Compression mode : Lossy
Delay relative to video : 3ms
Stream size : 71.6 MiB (10%)
Alignment : Split accross interleaves
Interleave, duration : 40 ms (1.00 video frame)
Interleave, preload duration : 500 ms

Immagini

Addio Miss Marple (1987), [VHSrip – DviX – Ita Mp3]

Trackers

http://tracker.istole.it:80/
http://tracker.publicbt.com:80/
http://tracker.tntvillage.scambioetico.org:2710/scrape
http://open.demonii.com:1337/scrape
http://tracker.coppersurfer.tk:6969/scrape
http://tracker.openbittorrent.com/scrape

Torrent correlati

Torrent Name Dimm. Creato Seed Leech
comment icon
11.46 Gb 3 mesi fa 1 1
comment icon
2.22 Gb 2 mesi fa 1 1
comment icon
699.4 Mb 9 mesi fa 0 1
comment icon
1.37 Gb 3 mesi fa 6 0
comment icon
699.48 Mb 5 mesi fa 1 0